Gay Dance Chart Top 20

June 01, 2019
Download podcast

Gay Dance Chart Top 20 From Saturday first of June 2019

Tracklist:


TRACK 01 AUDIO
TITLE "Mighty Real (Jet Boot Jack 2019 Remix)"
PERFORMER "Sylvester"
INDEX 01 00:28:00
TRACK 02 AUDIO
TITLE "Dinero (original mix)"
PERFORMER "jeaneiffel"
INDEX 01 06:29:00
TRACK 03 AUDIO
TITLE "Dancin Wit My Baby (Darius Syrossian Remix)"
PERFORMER "Angel Moraes"
REM ALBUM "Dancin Wit My Baby EP"
INDEX 01 12:47:00
TRACK 04 AUDIO
TITLE "Let's Go Dancing (Extended 12' Mix)"
PERFORMER "Horse Meat Disco, Amy Douglas"
INDEX 01 18:34:00
TRACK 05 AUDIO
TITLE "Where The Party's At (Original Mix)"
PERFORMER "Mark Lower"
INDEX 01 24:34:00
TRACK 06 AUDIO
TITLE "So Am I (Deepend Remix)"
PERFORMER "Ava Max"
INDEX 01 29:57:00
TRACK 07 AUDIO
TITLE "Lose my Love (AKTVSM Remix)"
PERFORMER "Kara Marni"
INDEX 01 34:09:00
TRACK 08 AUDIO
TITLE "Fired Up (Damien Hall Radio Edit)"
PERFORMER "Jade Starling"
REM ALBUM "Fired Up - Remixes"
INDEX 01 38:59:00
TRACK 09 AUDIO
TITLE "Headhunter (Moto Blanco Radio)"
PERFORMER "Las Bibas From Vizcaya"
REM ALBUM "Headhunter"
INDEX 01 42:21:00
TRACK 10 AUDIO
TITLE "Medellín (David Michael Remix)"
PERFORMER "Madonna feat. Maluma"
REM ALBUM "Medellín (Remixes)"
INDEX 01 45:23:00
TRACK 11 AUDIO
TITLE "Gucci Fendi Prada (Extended Mix)"
PERFORMER "Merk & Kremont"
INDEX 01 51:03:00
TRACK 12 AUDIO
TITLE "Piece Of Your Heart (James Hype Remix)"
PERFORMER "Meduza (feat Goodboys)"
INDEX 01 54:45:00
TRACK 13 AUDIO
TITLE "Fire In My Soul (Tom Staar Remix)"
PERFORMER "Oliver Heldens (feat Shungudzo)"
REM ALBUM "Fire In My Soul - Remixes"
INDEX 01 59:13:00
TRACK 14 AUDIO
TITLE "Don't Feel Like Crying (Jacked Remix)"
PERFORMER "Sigrid"
INDEX 01 62:06:00
TRACK 15 AUDIO
TITLE "All Day And Night - Jax Jones & Martin Solveig Present Europa"
PERFORMER "Jax Jones, Martin Solveig, Madison Beer, Europa"
REM ALBUM "All Day And Night"
INDEX 01 65:48:00
TRACK 16 AUDIO
TITLE "Now That I Found You (Wideboys Remix)"
PERFORMER "Csrly Rae Jepsen"
REM ALBUM "Now That I Found You - Remixes"
INDEX 01 68:52:00
TRACK 17 AUDIO
TITLE "Give You Up (Mark Knight Remix)"
PERFORMER "Dido"
REM ALBUM "Give You Up (Mark Knight Remix)"
INDEX 01 73:23:00
TRACK 18 AUDIO
TITLE "Medicine (Barry Harris Club Mix)"
PERFORMER "Jennifer Lopez (feat French Montana)"
INDEX 01 79:04:00
TRACK 19 AUDIO
TITLE "bad guy (Liam Pfeifer Remix)"
PERFORMER "Billie Eilish"
INDEX 01 84:40:00
TRACK 20 AUDIO
TITLE "Flux (Liam Pfeifer Remix)"
PERFORMER "Ellie Goulding"
REM ALBUM "Flux - Remixes"
INDEX 01 89:01:00
TRACK 21 AUDIO
TITLE "Broken & Beautiful (Stormby Mix Edit)"
PERFORMER "Kelly Clarkson"
INDEX 01 93:15:00

Comments(0)

Log in to comment